<?xml version="1.0" standalone="no"?>
<!DOCTYPE svg PUBLIC "-//W3C//DTD SVG 1.1//EN" "http://www.w3.org/Graphics/SVG/1.1/DTD/svg11.dtd" >
<svg xmlns="http://www.w3.org/2000/svg">
<metadata>Generated by IcoMoon</metadata>
<defs>
<font id="stmicons" horiz-adv-x="1024">
<font-face units-per-em="1024" ascent="960" descent="-64" />
<missing-glyph horiz-adv-x="1024" />
<glyph unicode="&#x20;" horiz-adv-x="512" d="" />
<glyph unicode="&#xe9dd;" glyph-name="box" d="M796.444 853.333c0 31.417-25.472 56.889-56.889 56.889h-455.111c-31.417 0-56.889-25.472-56.889-56.889l-227.556-398.222v-398.222c0-31.417 25.472-56.889 56.889-56.889h910.222c31.417 0 56.889 25.472 56.889 56.889v398.222l-227.556 398.222zM326.112 796.444h371.778l162.555-284.444h-206.222c-15.723 0-28.444-12.736-28.444-28.444v-23.374c0-59.388-43.305-112.528-102.416-118.293-67.806-6.61-125.14 46.738-125.14 113.223v28.444c0 15.708-12.722 28.444-28.444 28.444h-206.222l162.556 284.444zM910.222 142.222c0-15.708-12.722-28.444-28.444-28.444h-739.556c-15.723 0-28.444 12.736-28.444 28.444v256h178.112c25.305-98.098 114.112-170.667 220.11-170.667s194.805 72.569 220.11 170.667h178.112v-256z" />
<glyph unicode="&#xe9de;" glyph-name="write" d="M910.284 341.333c-31.445 0-56.889-25.472-56.889-56.889v-142.222c0-15.708-12.75-28.444-28.444-28.444h-625.888c-15.723 0-28.444 12.736-28.444 28.444v625.778c0 15.708 12.722 28.444 28.444 28.444h142.222c31.445 0 56.917 25.472 56.917 56.889s-25.474 56.889-56.917 56.889h-227.556c-31.445 0-56.917-25.472-56.917-56.889v-796.444c0-31.417 25.472-56.889 56.917-56.889h796.555c31.445 0 56.889 25.472 56.889 56.889v227.556c0 31.417-25.444 56.889-56.889 56.889zM749.173 773.541l81.305-81.319-338.388-350.889h-93.888v93.876l350.971 338.332zM749.895 910.222c-14.556 0-29.060-5.541-40.171-16.626l-425.328-410.041v-256h256.055l410.112 425.25c22.167 22.167 22.167 58.098 0 80.263l-160.556 160.528c-11.056 11.084-25.611 16.626-40.112 16.626v0z" />
<glyph unicode="&#xe9df;" glyph-name="clock5" d="M512 910.222c-251.333 0-455.111-203.764-455.111-455.111s203.778-455.111 455.111-455.111 455.111 203.764 455.111 455.111-203.778 455.111-455.111 455.111zM512 113.778c-188.222 0-341.333 153.125-341.333 341.333s153.111 341.333 341.333 341.333 341.333-153.125 341.333-341.333-153.111-341.333-341.333-341.333zM626.332 455.111h-85.888c-15.723 0-28.444 12.736-28.444 28.444v85.902c0 31.097-25.223 56.32-56.334 56.32h-1.111c-31.111 0-56.334-25.223-56.334-56.32v-171.804c0-31.097 25.223-56.322 56.334-56.322h171.778c31.111 0 56.334 25.223 56.334 56.322v1.14c0 31.095-25.223 56.318-56.334 56.318z" />
<glyph unicode="&#xe9e0;" glyph-name="reply4" d="M625.561 568.839l-226.389-0.11c-0.361 0-0.695 0.11-1.083 0.11h-91.243l188.708 188.82c21.712 21.714 21.712 56.896 0 78.596l-0.779 0.805c-21.687 21.7-56.868 21.7-78.556 0l-279.616-279.799c-1.972-1.5-3.97-2.917-5.748-4.706l-0.306-0.292c-0.084-0.069-0.139-0.139-0.194-0.208l-0.304-0.292c-1.916-1.916-3.472-4.053-5.028-6.18-0.5-0.652-1.111-1.209-1.556-1.888-6.469-9.483-9.717-20.478-9.662-31.502 0-0.098-0.028-0.167-0.028-0.263 0-0.084 0.028-0.165 0.028-0.249-0.055-11.024 3.193-22.021 9.662-31.504 0.444-0.667 1.028-1.223 1.5-1.861 1.611-2.123 3.166-4.274 5.083-6.204l0.304-0.306c0.055-0.069 0.11-0.124 0.194-0.194l0.306-0.292c1.778-1.806 3.776-3.221 5.748-4.72l279.618-279.785c21.687-21.7 56.868-21.7 78.556 0l0.779 0.789c21.712 21.7 21.712 56.896 0 78.612l-188.709 188.818h91.243c0.389 0 0.722 0.098 1.083 0.11v-0.11h226.389c94.076 0 170.603-76.583 170.603-170.702v-170.539c0-31.433 25.463-56.91 56.868-56.91s56.868 25.477 56.868 56.91v170.539c0 157.122-127.285 284.507-284.338 284.507z" />
<glyph unicode="&#xe9e1;" glyph-name="reply-all" d="M136.148 511.931l245.66 245.732c21.685 21.7 21.685 56.896 0 78.596l-0.805 0.791c-21.685 21.714-56.868 21.714-78.555 0l-279.732-279.787c-1.945-1.5-3.943-2.916-5.748-4.706l-0.805-0.791c-10.969-10.997-16.299-25.435-16.16-39.833-0.139-14.396 5.191-28.837 16.16-39.831l0.805-0.791c1.806-1.79 3.804-3.207 5.748-4.706l279.732-279.787c21.685-21.714 56.868-21.714 78.555 0l0.805 0.791c21.685 21.7 21.685 56.896 0 78.596l-245.66 245.726zM739.344 568.827h-261.904l188.764 188.836c21.684 21.7 21.684 56.896 0 78.596l-0.804 0.791c-21.687 21.714-56.869 21.714-78.556 0l-279.732-279.787c-1.945-1.5-3.943-2.916-5.721-4.706l-0.306-0.292c-0.084-0.069-0.139-0.139-0.194-0.208l-0.334-0.292c-1.888-1.931-3.444-4.068-5.024-6.178-0.473-0.652-1.083-1.223-1.527-1.902-6.498-9.468-9.719-20.482-9.664-31.504 0-0.084-0.055-0.167-0.055-0.251s0.055-0.167 0.055-0.251c-0.055-11.022 3.164-22.034 9.664-31.516 0.444-0.652 1.028-1.207 1.5-1.86 1.609-2.124 3.136-4.277 5.052-6.206l0.334-0.292c0.055-0.069 0.11-0.139 0.167-0.194l0.334-0.306c1.778-1.79 3.776-3.207 5.748-4.706l279.701-279.787c21.685-21.714 56.868-21.714 78.556 0l0.804 0.791c21.684 21.7 21.684 56.896 0 78.596l-188.764 188.834h261.904c94.076 0 170.66-76.581 170.66-170.702v-170.555c0-31.419 25.435-56.896 56.868-56.896 31.404 0 56.862 25.477 56.862 56.896v170.555c0.007 157.125-127.31 284.494-284.389 284.494z" />
<glyph unicode="&#xe9e2;" glyph-name="forward" d="M950.667 495.502l-341.344 341.134c-22.263 22.261-58.34 22.261-80.631 0-22.26-22.251-22.26-58.327 0-80.59l244.206-244.048h-659.342c-31.438 0-56.924-25.474-56.924-56.882 0-31.42 25.486-56.894 56.924-56.894h659.333l-244.194-244.048c-22.261-22.26-22.261-58.336 0.030-80.59 22.26-22.26 58.368-22.26 80.629 0l341.316 341.138c11.173 11.147 16.729 25.762 16.704 40.372 0.021 14.615-5.534 29.248-16.708 40.409z" />
<glyph unicode="&#xe9e3;" glyph-name="flag" d="M113.778 910.222c-31.417 0-56.889-25.472-56.889-56.889v-796.444c0-31.417 25.472-56.889 56.889-56.889s56.889 25.472 56.889 56.889v796.444c0 31.417-25.472 56.889-56.889 56.889zM910.222 910.222h-568.889c-31.417 0-56.889-25.472-56.889-56.889v-455.111c0-31.417 25.472-56.889 56.889-56.889h568.889c31.417 0 56.889 25.472 56.889 56.889v455.111c0 31.417-25.472 56.889-56.889 56.889zM853.333 483.555c0-15.708-12.722-28.444-28.444-28.444h-398.222c-15.723 0-28.444 12.736-28.444 28.444v284.444c0 15.708 12.722 28.444 28.444 28.444h398.222c15.723 0 28.444-12.736 28.444-28.444v-284.444z" />
<glyph unicode="&#xe9e4;" glyph-name="search4" d="M398.878 796.444c124.75 0 226.251-102.084 226.251-227.556 0-47.25-14.5-92.736-41.945-131.527l-22.277-31.46-31.278-22.375c-38.555-27.611-83.778-42.194-130.75-42.194-124.779 0-226.251 102.084-226.251 227.556s101.474 227.556 226.251 227.556zM398.878 910.222c-187.444 0-339.388-152.82-339.388-341.333s151.945-341.333 339.388-341.333c73.25 0 140.889 23.57 196.334 63.264l272.555-274.124c11.083-11.14 25.584-16.695 40.084-16.695s28.999 5.556 40.055 16.695c22.139 22.254 22.139 58.332 0 80.583l-272.555 274.124c39.472 55.778 62.889 123.819 62.889 197.486 0 188.514-151.945 341.333-339.362 341.333v0z" />
<glyph unicode="&#xe9e5;" glyph-name="trash" d="M967.111 682.667h-227.556v170.667c0 31.417-25.472 56.889-56.889 56.889h-341.333c-31.417 0-56.889-25.472-56.889-56.889v-170.667h-227.556c-31.417 0-56.889-25.472-56.889-56.889v-56.889h113.778v-512c0-31.417 25.472-56.889 56.889-56.889h682.667c31.417 0 56.889 25.472 56.889 56.889v512h113.778v56.889c0 31.417-25.472 56.889-56.889 56.889zM398.222 796.444h227.556v-113.778h-227.556v113.778zM796.444 113.778h-568.889v455.111h568.889v-455.111zM369.778 227.555h56.889c15.723 0 28.444 12.736 28.444 28.444v170.667c0 15.708-12.722 28.444-28.444 28.444h-56.889c-15.723 0-28.444-12.736-28.444-28.444v-170.667c0-15.708 12.722-28.444 28.444-28.444zM597.333 227.555h56.889c15.723 0 28.444 12.736 28.444 28.444v170.667c0 15.708-12.722 28.444-28.444 28.444h-56.889c-15.723 0-28.444-12.736-28.444-28.444v-170.667c0-15.708 12.722-28.444 28.444-28.444z" />
<glyph unicode="&#xe9e6;" glyph-name="envelope2" d="M910.222 796.444h-796.444c-31.417 0-56.889-25.472-56.889-56.889v-568.889c0-31.417 25.472-56.889 56.889-56.889h796.444c31.417 0 56.889 25.472 56.889 56.889v568.889c0 31.417-25.472 56.889-56.889 56.889zM831.611 682.667l-319.611-217.959-319.611 217.959h639.221zM853.333 256c0-15.708-12.722-28.444-28.444-28.444h-625.778c-15.723 0-28.444 12.736-28.444 28.444v305.070l312.722-211.806c8.834-5.292 18.724-7.931 28.612-7.931s19.778 2.638 28.612 7.931l312.722 211.806v-305.070z" />
<glyph unicode="&#xe9e7;" glyph-name="bubble" d="M512.889 796.444c156.334 0 283.556-127.596 283.556-284.444s-127.221-284.444-282.722-284.459l-3.388 0.208c-3.14 0.222-6.251 0.412-9.388 0.555l-19.111 0.791-208.473-62.485 35.778 141.227-29.388 42.51c-32.974 47.751-50.418 103.653-50.418 161.653 0 156.848 127.195 284.444 283.556 284.444zM512.889 910.222c-219.445 0-397.333-178.292-397.333-398.222 0-84.124 26.167-162.028 70.612-226.32l-72.389-285.68 382.416 114.626c5.584-0.236 11.056-0.848 16.695-0.848 219.445 0 397.333 178.292 397.333 398.222s-177.888 398.222-397.333 398.222v0z" />
<glyph unicode="&#xe9e8;" glyph-name="bubbles" d="M915.417 441.819c31.723 48.208 50.416 106.652 50.416 169.737 0 164.944-127.056 298.667-283.81 298.667-136.028 0-249.524-100.736-277.223-235.152-20.249 4.82-41.193 7.596-62.832 7.596-156.75 0-283.806-133.723-283.806-298.667 0-63.083 18.667-121.527 50.416-169.737l-51.689-214.263 273.166 85.972c3.972-0.185 7.89-0.638 11.916-0.638 136.028 0 249.527 100.736 277.223 235.152 20.251-4.82 41.195-7.596 62.834-7.596 4.032 0 7.948 0.459 11.916 0.638l273.166-85.972-51.694 214.263zM511.5 373.223c0-0.014 0-0.028 0-0.052-0.972-18.032-4.277-35.319-9.694-51.596-0.028-0.098-0.084-0.19-0.084-0.292-1.778-5.292-3.723-10.444-5.916-15.5-0.11-0.254-0.251-0.514-0.361-0.779-2.112-4.836-4.389-9.541-6.834-14.139-0.306-0.542-0.612-1.072-0.944-1.625-2.332-4.251-4.779-8.405-7.445-12.414-0.612-0.919-1.25-1.808-1.861-2.706-2.444-3.57-4.944-7.081-7.639-10.444-1.056-1.333-2.167-2.597-3.278-3.916-2.361-2.82-4.722-5.623-7.25-8.276-1.723-1.833-3.556-3.525-5.362-5.264-2.055-1.986-4.055-4.016-6.167-5.888-2.722-2.391-5.584-4.597-8.444-6.805-1.362-1.072-2.695-2.222-4.11-3.25-4.167-3.042-8.5-5.861-12.889-8.484-0.222-0.123-0.389-0.261-0.612-0.389-19.305-11.403-40.86-18.852-63.778-21.319-0.277-0.028-0.612-0.014-0.917-0.055-4.75-0.482-9.584-0.848-14.444-0.903l-0.75 0.055c-0.055 0-0.084 0.014-0.139 0.014-0.416 0-0.834-0.069-1.25-0.069-6.055 0-12.055 0.361-17.945 1.028l-8.389 0.375-100.306-31.57 4.473 18.626 11.611 47.986-17.223 26.192c-26.608 32.583-42.885 75.307-42.885 122.236 0 102.112 76.416 184.889 170.667 184.889 0.11 0 0.222-0.014 0.334-0.014 0.084 0 0.194 0.014 0.306 0.014 5.639 0 11.195-0.347 16.695-0.944 0.528-0.055 1.056-0.181 1.556-0.251 4.889-0.583 9.723-1.362 14.444-2.389 2.556-0.542 4.999-1.292 7.5-1.959 2.556-0.695 5.166-1.333 7.723-2.153 3.111-1.013 6.167-2.222 9.223-3.417 1.388-0.528 2.805-0.944 4.167-1.527 0-0.041 0.028-0.084 0.028-0.124 63.579-26.889 108.69-93.721 108.69-172.124 0-3.639-0.334-7.195-0.5-10.777v0zM820.389 504.361l-27.166-41.25 16.087-66.612-100.309 31.57-20-0.875c-2.612-0.11-5.163-0.292-7.723-0.473l-0.75-0.055c-21.083 0.208-41.195 4.791-59.806 12.652-13.278 74.514-52.889 139.083-108.222 183.013 5.168 96.917 79.111 174.112 169.529 174.112 93.749 0 170.032-82.944 170.032-184.889-0.005-38.626-10.949-75.68-31.671-107.195z" />
<glyph unicode="&#xe9e9;" glyph-name="user2" d="M780.194 531.708l-0.032-0.014c10.366 29.5 16.283 61.056 16.283 94.084 0 157.097-127.333 284.444-284.444 284.444s-284.444-127.348-284.444-284.444c0-33.028 5.916-64.583 16.277-94.084v0.014c-110.834-56.375-186.944-171.209-186.944-304.084v-170.652c0-31.472 25.5-56.972 56.972-56.972h796.277c31.472 0 56.972 25.5 56.972 56.972v170.652c0 132.875-76.084 247.708-186.917 304.084zM512 796.444c94.112 0 170.667-76.555 170.667-170.667s-76.555-170.667-170.667-170.667c-94.112 0-170.667 76.555-170.667 170.667s76.555 170.667 170.667 170.667zM853.333 113.778h-682.667v113.847c0 91.264 54.167 169.945 131.89 206.153 52-56.695 126.444-92.444 209.444-92.444 83.001 0 157.444 35.749 209.444 92.444 77.723-36.208 131.89-114.889 131.89-206.153v-113.847z" />
<glyph unicode="&#xe9ea;" glyph-name="users" d="M830.583 568.889h-7.945c19.417 33.5 30.695 72.277 30.695 113.778 0 125.668-101.888 227.556-227.556 227.556s-227.556-101.888-227.556-227.556c-125.668 0-227.556-101.888-227.556-227.556 0-41.5 11.278-80.277 30.695-113.778h-7.945c-81.056-36.306-136.528-114.069-136.528-197.013v-87.431c0-19.945 31.5-56.889 55.111-56.889h577.778c23.611 0 49.778 36.944 49.778 56.889v87.431c0 28.93-7.111 57.097-19.333 83.236h197.111c23.611 0 49.778 36.944 49.778 56.889v87.431c0 82.944-55.472 160.708-136.528 197.013zM625.778 796.444c62.722 0 113.778-51.042 113.778-113.778s-51.056-113.778-113.778-113.778c-12 0-23.362 2.375-34.222 5.833-18.556 29.916-43.806 55.152-73.723 73.694-3.444 10.889-5.833 22.236-5.833 34.251 0 62.736 51.056 113.778 113.778 113.778zM398.222 568.889c62.834 0 113.778-50.944 113.778-113.778s-50.944-113.778-113.778-113.778c-56.222 0-102.667 40.903-111.833 94.514-1.223 6.251-1.945 12.652-1.945 19.264 0 62.834 50.944 113.778 113.778 113.778zM625.778 113.778h-455.111v30.542c0 30.875 20.277 62.987 51.111 83.236h352.889c30.834-20.251 51.111-52.361 51.111-83.236v-30.542zM853.333 341.333h-258.251c19.417 33.5 30.695 72.277 30.695 113.778h176.444c30.834-20.251 51.111-52.361 51.111-83.236v-30.542z" />
<glyph unicode="&#xe9eb;" glyph-name="cloud" d="M625.778 682.667c130.612 0 235.916-110.638 227.028-243.14-8.084-120.805-113.972-211.972-235.056-211.972h-328.249c-59.388 0-112.5 43.305-118.277 102.416-6.612 67.82 46.722 125.14 113.221 125.14 3.333 0 6.612-0.306 9.833-0.569l43.945-3.737c25.833-2.194 49.888 13.374 58.5 37.861l14.556 41.596c31.972 91.154 118.165 152.404 214.5 152.404zM625.778 796.444c-148.917 0-275.221-95.541-321.861-228.542-6.416 0.542-12.889 0.987-19.472 0.987-125.668 0-227.556-101.876-227.556-227.556s101.888-227.556 227.556-227.556h341.333c188.5 0 341.333 152.82 341.333 341.333s-152.834 341.333-341.333 341.333v0z" />
<glyph unicode="&#xe9ec;" glyph-name="download3" d="M966.583 540.446c-0.917 21.378-2.836 43.298-5.113 65.652-15.865 154.999-139.525 282.148-293.86 301.401-166.503 20.782-312.528-79.584-363.371-224.818-6.389 0.542-12.809 0.987-19.337 0.987-124.884 0-228.098-101.881-228.098-227.001v-56.635c0-30.978 27.004-56.204 57.927-56.204h1.14c30.896 0 54.482 26.56 54.482 57.524v44.692c-6.556 67.524 48.482 124.34 114.549 124.34 3.305 0 6.556-0.292 9.78-0.569l43.787 0.569c25.698-2.181 49.451 9.044 57.982 33.408l12.279 35.076c29.838 85.252 105.074 149.223 194.898 157.168 139.079 12.322 259.239-104.896 249.963-243.669l-0.19-11.918v-145.776h0.555c1.641-29.618 27.669-53.33 57.621-53.33h1.111c29.509 0 52.064 24.226 54.121 53.33h0.389v145.776h-0.615zM641.803 267.020l-73.209-74.903v206.677c0 31.1-25.086 56.316-56.037 56.316h-1.111c-30.951 0-56.037-25.216-56.037-56.316v-198.050l-7.364 1.18-63.623 63.372c-20.087 19.972-52.203 24.837-75.18 8.322-29.17-20.964-31.589-61.707-7.25-85.947l171.92-171.132c10.613-10.585 25.003-16.546 40.091-16.546 15.061 0 29.449 5.961 40.091 16.546l167.92 170.67c22.142 22.044 22.142 57.76 0 79.81-22.172 22.073-58.068 22.073-80.21 0z" />
<glyph unicode="&#xe9ed;" glyph-name="upload" d="M966.587 540.441c-0.917 21.378-2.834 43.312-5.111 65.652-15.865 155.001-139.527 282.153-293.861 301.406-166.507 20.78-312.533-79.586-363.378-224.821-6.391 0.555-12.809 0.987-19.337 0.987-124.885 0-228.101-101.883-228.101-227.003v-56.633c0-30.981 27.004-56.208 57.927-56.208h1.14c30.896 0 54.484 26.56 54.484 57.525v44.69c-6.556 67.525 48.482 124.361 114.551 124.361 3.305 0 6.556-0.306 9.78-0.583l43.787 0.583c25.698-2.196 49.454 9.029 57.982 33.394l12.281 35.076c29.838 85.253 105.076 149.225 194.898 157.17 139.083 12.324 259.246-104.882 249.963-243.671l-0.192-11.92v-145.78h0.555c1.639-29.618 27.673-53.332 57.621-53.332h1.111c29.511 0 52.066 24.228 54.124 53.33h0.389v145.78l-0.612-0.002zM721.986 267.445l-171.895 171.132c-10.615 10.583-25.031 16.546-40.091 16.546s-29.451-5.963-40.094-16.546l-167.92-170.674c-22.144-22.044-22.144-57.76 0-79.81 22.142-22.060 58.037-22.060 80.181 0l73.237 74.903v-206.679c0-31.104 25.088-56.318 56.039-56.318h1.111c30.953 0 56.037 25.214 56.037 56.318v198.052l7.362-1.18 63.625-63.371c20.089-19.975 52.204-24.843 75.18-8.325 29.175 20.964 31.591 61.708 7.227 85.952z" />
<glyph unicode="&#xe9ee;" glyph-name="rain" d="M966.576 597.333c-0.921 21.376-2.834 43.308-5.111 65.644-15.863 154.997-139.511 282.164-293.829 301.413-166.487 20.764-312.5-79.588-363.337-224.825-6.389 0.542-12.805 0.987-19.335 0.987-124.871 0.002-228.075-101.884-228.075-227.003v-56.645c0-30.946 27.001-56.199 57.92-56.199h1.141c30.891 0 54.478 26.558 54.478 57.532v44.684c-6.556 67.534 48.476 124.345 114.537 124.345 3.305 0 6.556-0.292 9.78-0.569l43.781 0.569c25.696-2.181 49.447 9.044 57.975 33.42l12.279 35.074c29.835 85.244 105.065 149.209 194.876 157.166 139.074 12.322 259.221-104.884 249.938-243.673l-0.196-11.922v-145.765h0.555c1.641-29.643 27.669-53.337 57.618-53.337h1.111c29.502 0 52.059 24.222 54.114 53.337h0.389v145.765h-0.61zM398.251 512.005c-31.419 0-56.892-25.476-56.892-56.882v-113.783c0-31.42 25.474-56.896 56.892-56.896 31.42 0 56.896 25.476 56.896 56.896v113.783c0 31.408-25.477 56.882-56.896 56.882zM398.251 170.656c-31.419 0-56.892-25.444-56.892-56.892v-113.76c0-31.42 25.474-56.892 56.892-56.892 31.42 0 56.896 25.472 56.896 56.892v113.76c0 31.449-25.477 56.892-56.896 56.892zM625.826 625.778c-31.424 0-56.894-25.474-56.894-56.894v-113.76c0-31.445 25.474-56.891 56.894-56.891s56.892 25.444 56.892 56.891v113.76c0 31.42-25.474 56.894-56.892 56.894zM625.826 284.444c-31.424 0-56.894-25.472-56.894-56.892v-113.788c0-31.392 25.474-56.864 56.894-56.864s56.892 25.472 56.892 56.864v113.788c0 31.42-25.474 56.892-56.892 56.892z" />
<glyph unicode="&#xe9ef;" glyph-name="sun" d="M545.374 622.611c-11.305 2.139-22.5 3.166-33.417 3.166-105.305 0-188.306-95.125-167.639-204.084 12.667-66.805 67.362-121.444 134.222-134.084 11.305-2.139 22.473-3.166 33.417-3.166 105.307 0 188.279 95.111 167.639 204.069-12.667 66.805-67.36 121.445-134.222 134.098zM555.876 418.875c-10.889-13.125-26.889-20.652-43.918-20.652-4 0-8.11 0.404-12.251 1.18-20.86 3.945-39.556 22.626-43.5 43.472-4.389 23.001 4.028 39.056 11.833 48.473 10.86 13.125 26.889 20.652 43.916 20.652 3.973 0 8.082-0.404 12.222-1.18 20.86-3.945 39.586-22.638 43.527-43.472 4.364-23.001-4.025-39.056-11.829-48.473zM967.737 398.222h-114.306c-31.333 0-56.72 25.374-56.72 56.681v0.416c0 31.305 25.387 56.681 56.72 56.681h114.306c31.333 0 56.722-25.374 56.722-56.681v-0.416c0-31.307-25.388-56.681-56.722-56.681zM512.208 170.667h-0.416c-31.333 0-56.722-25.374-56.722-56.681v-114.194c0-31.303 25.388-56.681 56.722-56.681h0.416c31.333 0 56.724 25.374 56.724 56.681v114.194c-0.002 31.307-25.39 56.681-56.724 56.681zM511.79 739.555h0.416c31.333 0 56.724 25.374 56.724 56.681v114.194c0 31.307-25.388 56.681-56.722 56.681h-0.416c-31.333 0-56.722-25.374-56.722-56.681v-114.194c-0.002-31.307 25.387-56.681 56.72-56.681zM227.319 454.903v0.416c0 31.305-25.417 56.681-56.75 56.681h-114.277c-31.333 0-56.75-25.374-56.75-56.681v-0.416c0-31.305 25.417-56.681 56.75-56.681h114.277c31.333 0 56.75 25.374 56.75 56.681zM831.292 698.361l63.586 63.527c20.944 20.917 20.944 54.834 0 75.749s-54.889 20.917-75.808 0l-63.609-63.527c-20.919-20.917-20.919-54.834 0-75.749 20.942-20.93 54.885-20.93 75.831 0zM204.958 837.639c-20.944 20.917-54.889 20.917-75.833 0-20.917-20.917-20.917-54.834 0-75.749l63.611-63.527c20.917-20.93 54.86-20.93 75.806 0 20.944 20.917 20.944 54.834 0 75.749l-63.584 63.527zM192.736 211.861l-63.611-63.527c-20.917-20.917-20.917-54.834 0-75.748 20.944-20.93 54.889-20.93 75.833 0l63.584 63.525c20.944 20.919 20.944 54.836 0 75.749-20.946 20.93-54.891 20.93-75.806 0zM831.292 211.861c-20.942 20.93-54.889 20.93-75.831 0-20.919-20.917-20.919-54.834 0-75.749l63.609-63.525c20.919-20.93 54.86-20.93 75.808 0 20.944 20.917 20.944 54.834 0 75.748l-63.586 63.527z" />
<glyph unicode="&#xe9f0;" glyph-name="moon" d="M412.235 781.959c-14.306-47.097-18.306-97.292-11.278-147.723 20.805-149.596 139.666-268.681 288.972-289.515 16.055-2.251 32.306-3.388 48.334-3.388 34.055 0 67.333 4.944 99.111 14.612-38.361-126-150.306-223.333-282.889-239.5-14.444-1.778-29.028-2.667-43.333-2.667-97.472 0-190.5 41.972-255.195 115.166-65.556 74.167-94.972 169.916-82.86 269.584 16.165 132.846 113.332 245.028 239.138 283.431zM511.124 910.222c-20.612 0-41.584-1.388-62.777-4.263-201.557-27.307-363.39-191.39-387.973-393.682-33.668-276.86 181.111-512.277 450.777-512.277 18.777 0 37.806 1.14 57.083 3.5 201.888 24.638 365.668 186.75 392.917 388.695 2.944 21.778 4.334 43.305 4.251 64.5-0.11 33.166-27.444 55.305-56.638 55.305-11.89 0-24.11-3.694-34.917-11.778-37.806-28.332-84.722-45.111-135.584-45.111-10.722 0-21.611 0.75-32.638 2.277-98.556 13.778-178.444 93.833-192.194 192.569-8.834 63.445 8.5 122.667 42.722 168.542 23.584 37.362 1.444 91.541-43.445 91.723-0.5 0-1.028 0-1.582 0v0z" />
<glyph unicode="&#xe9f1;" glyph-name="bell" d="M910.222 341.333h-56.889v227.556c0 188.514-152.834 341.333-341.333 341.333-188.514 0-341.333-152.82-341.333-341.333v-227.556h-56.889c-31.417 0-56.889-25.472-56.889-56.889s25.472-56.889 56.889-56.889h796.444c31.417 0 56.889 25.472 56.889 56.889s-25.472 56.889-56.889 56.889zM739.556 341.333h-455.111v227.556c0 125.472 102.084 227.556 227.556 227.556s227.556-102.084 227.556-227.556v-227.556zM398.222 113.778c0-62.834 50.944-113.778 113.778-113.778s113.778 50.944 113.778 113.778v56.889h-227.556v-56.889z" />
<glyph unicode="&#xe9f2;" glyph-name="folder" d="M339.305 739.555l72.139-72.124c26.834-26.862 62.556-41.653 100.556-41.653h341.333v-455.111h-682.667v568.889h168.638zM374.667 853.333h-260.889c-31.417 0-56.889-25.472-56.889-56.889v-682.667c0-31.417 25.472-56.889 56.889-56.889h796.444c31.417 0 56.889 25.472 56.889 56.889v568.889c0 31.417-25.472 56.889-56.889 56.889h-398.222c-7.556 0-14.777 3.001-20.11 8.334l-97.111 97.111c-5.335 5.332-12.556 8.332-20.112 8.332v0z" />
<glyph unicode="&#xe9f3;" glyph-name="pin3" d="M853.333 853.333v56.889h-682.667v-56.889c0-31.417 25.472-56.889 56.889-56.889v-455.111c-31.417 0-56.889-25.472-56.889-56.889v-56.889h284.444v-170.667c0-31.417 25.472-56.889 56.889-56.889s56.889 25.472 56.889 56.889v170.667h284.444v56.889c0 31.417-25.472 56.889-56.889 56.889v455.111c31.417 0 56.889 25.472 56.889 56.889zM682.667 341.333h-341.333v455.111h341.333v-455.111z" />
<glyph unicode="&#xe9f4;" glyph-name="sound" d="M581.056 853.333c-6.332 0-12.779-1.819-19.001-5.764l-230.277-159.847c-4.722-3.292-10.332-5.056-16.11-5.056h-202.112c-31.305 0-56.667-25.472-56.667-56.889v-341.333c0-31.417 25.362-56.889 56.667-56.889h202.112c5.778 0 11.388-1.764 16.11-5.056l230.277-159.847c6.222-3.945 12.695-5.764 19.001-5.764 22.277 0 42.5 22.736 42.5 54v688.43c0 31.278-20.222 54.014-42.5 54.014zM510.222 236.972l-135.78 94.265c-9.472 6.569-20.722 10.1-32.222 10.1h-143.666c-15.666 0-28.334 12.736-28.334 28.444v170.667c0 15.708 12.667 28.444 28.334 28.444h143.668c11.5 0 22.75 3.527 32.222 10.098l135.778 94.26v-436.277zM963.333 466.528c-4.889 99.417-86.112 170.139-142.612 207.57-26.75 17.737-62.222 6.93-75.364-23.195l-2.137-4.889c-10.667-24.5-2.583-53.403 19.111-67.945 40.167-26.903 90.222-70.958 92.389-117.486 1.833-38.473-31.445-83.5-94.612-129.111-22.667-16.375-30.112-47.708-16.222-72.555l2.389-4.292c15.111-27.001 49.278-35.486 73.945-17.762 98.999 71.15 147.111 148.233 143.111 229.664z" />
<glyph unicode="&#xe9f5;" glyph-name="microphone4" d="M853.333 682.667c-31.417 0-56.889-25.472-56.889-56.889v-103.737c0-151.348-113.945-283.723-264.972-293.833-165.611-11.083-303.916 120.5-303.916 283.792v113.778c0 31.417-25.472 56.889-56.889 56.889s-56.889-25.472-56.889-56.889v-102.528c0-201.685 145.778-376.873 341.333-405.378v-60.983c0-31.417 25.472-56.889 56.889-56.889s56.889 25.472 56.889 56.889v60.949c192.987 27.6 341.333 193.541 341.333 394.162v113.778c0 31.417-25.472 56.889-56.889 56.889zM512 910.222c-94.251 0-170.667-76.416-170.667-170.667v-227.556c0-94.251 76.416-170.667 170.667-170.667s170.667 76.416 170.667 170.667v227.556c0 94.251-76.416 170.667-170.667 170.667zM568.889 512c0-31.374-25.527-56.889-56.889-56.889-31.388 0-56.889 25.515-56.889 56.889v227.556c0 31.362 25.5 56.889 56.889 56.889 31.362 0 56.889-25.527 56.889-56.889v-227.556z" />
<glyph unicode="&#xe9f6;" glyph-name="camera" d="M967.111 739.555h-227.556l-97.111 97.111c-10.667 10.667-25.14 16.667-40.222 16.667h-180.444c-15.083 0-29.556-6-40.222-16.667l-97.111-97.111h-227.556c-31.417 0-56.889-25.472-56.889-56.889v-568.889c0-31.417 25.472-56.889 56.889-56.889h113.778c31.417 0 56.889 25.472 56.889 56.889s-25.472 56.889-56.889 56.889h-28.444c-15.723 0-28.444 12.736-28.444 28.444v398.222c0 15.708 12.722 28.444 28.444 28.444h189.362l113.778 113.778h133.278l113.776-113.778h189.362c15.723 0 28.444-12.736 28.444-28.444v-398.222c0-15.708-12.722-28.444-28.444-28.444h-28.444c-31.417 0-56.889-25.472-56.889-56.889 0-31.125 24.999-56.32 56.028-56.805l-0.028-0.084h114.667c31.417 0 56.889 25.472 56.889 56.889v568.889c0 31.417-25.472 56.889-56.889 56.889zM512 455.111c62.75 0 113.778-51.042 113.778-113.778s-51.028-113.778-113.778-113.778-113.778 51.042-113.778 113.778 51.028 113.778 113.778 113.778zM512 568.889c-125.668 0-227.556-101.876-227.556-227.556s101.888-227.556 227.556-227.556 227.556 101.876 227.556 227.556-101.888 227.556-227.556 227.556v0z" />
<glyph unicode="&#xe9f7;" glyph-name="image4" d="M967.104 910.222h-910.21c-31.41 0-56.876-25.467-56.876-56.878v-796.452c0-31.412 25.467-56.892 56.876-56.892h910.21c31.41 0 56.878 25.481 56.878 56.892v796.452c0 31.412-25.468 56.878-56.878 56.878zM910.197 142.222c0-15.705-12.718-28.439-28.437-28.439h-460.661l318.672 318.681 170.427-170.421v-119.82zM910.197 420.661l-123.461 123.452c-1.972 2.91-4.24 5.682-6.816 8.261-11.177 11.177-25.883 16.67-40.532 16.503-14.569 0.167-29.195-5.298-40.316-16.42-2.299-2.299-4.34-4.756-6.156-7.324l-431.339-431.351h-119.339c-15.719 0-28.437 12.734-28.437 28.439v625.778c0 15.721 12.718 28.453 28.437 28.453h739.522c15.719 0 28.437-12.732 28.437-28.453v-347.339zM341.339 682.67c-62.85 0-113.783-50.933-113.783-113.783 0-62.836 50.933-113.769 113.783-113.769 62.82 0 113.783 50.933 113.783 113.769 0 62.85-50.964 113.783-113.783 113.783z" />
<glyph unicode="&#xe9f8;" glyph-name="cog" d="M919.584 519.931l-75.388 12.555c-8.695 37.388-23.5 72.347-43.333 103.902l41.972 58.777c16 22.416 13.472 53.111-6 72.597l-12.194 12.181c-19.472 19.472-50.167 22.014-72.583 6l-58.777-41.986c-31.556 19.847-66.5 34.667-103.89 43.348l-12.583 75.374c-4.556 27.433-28.308 47.543-56.112 47.543h-17.388c-27.806 0-51.556-20.11-56.11-47.541l-12.583-75.374c-37.388-8.681-72.334-23.5-103.89-43.348l-58.777 41.986c-22.416 16.014-53.111 13.472-72.583-6l-12.194-12.181c-19.472-19.486-22-50.181-6-72.597l41.972-58.777c-19.833-31.556-34.638-66.514-43.333-103.902l-75.388-12.555c-27.42-4.585-47.531-28.322-47.531-56.126v-17.388c0-27.806 20.11-51.541 47.527-56.11l75.388-12.569c8.695-37.388 23.5-72.347 43.333-103.902l-41.972-58.777c-16-22.416-13.472-53.111 6-72.597l12.194-12.181c19.472-19.472 50.167-22.014 72.583-6l58.777 41.986c31.556-19.847 66.5-34.667 103.89-43.348l12.583-75.374c4.555-27.431 28.306-47.541 56.11-47.541h17.388c27.806 0 51.556 20.11 56.11 47.541l12.583 75.374c37.388 8.681 72.334 23.5 103.89 43.348l58.777-41.986c22.416-16.014 53.111-13.472 72.583 6l12.194 12.181c19.472 19.486 22 50.181 6 72.597l-41.972 58.777c19.833 31.556 34.638 66.514 43.333 103.902l75.388 12.569c27.417 4.569 47.527 28.306 47.527 56.11v17.388c0.005 27.804-20.105 51.541-47.522 56.124zM512 284.444c-94.251 0-170.667 76.416-170.667 170.667s76.416 170.667 170.667 170.667 170.667-76.416 170.667-170.667-76.416-170.667-170.667-170.667z" />
<glyph unicode="&#xe9f9;" glyph-name="calendar2" d="M654.222 341.333h-85.333v199.111c0 15.708-12.722 28.444-28.444 28.444h-170.667c-15.723 0-28.444-12.736-28.444-28.444v-56.889c0-15.708 12.722-28.444 28.444-28.444h85.333v-113.778h-85.333c-15.723 0-28.444-12.736-28.444-28.444v-56.889c0-15.708 12.722-28.444 28.444-28.444h284.444c15.723 0 28.444 12.736 28.444 28.444v56.889c0 15.708-12.722 28.444-28.444 28.444zM910.222 910.222h-796.444c-31.417 0-56.889-25.472-56.889-56.889v-796.444c0-31.417 25.472-56.889 56.889-56.889h796.444c31.417 0 56.889 25.472 56.889 56.889v796.444c0 31.417-25.472 56.889-56.889 56.889zM853.333 142.222c0-15.708-12.722-28.444-28.444-28.444h-625.778c-15.723 0-28.444 12.736-28.444 28.444v512c0 15.708 12.722 28.444 28.444 28.444h625.778c15.723 0 28.444-12.736 28.444-28.444v-512z" />
<glyph unicode="&#xe9fa;" glyph-name="book" d="M853.333 910.222h-625.778c-62.834 0-113.778-50.944-113.778-113.778v-682.667c0-62.834 50.944-113.778 113.778-113.778h625.778c31.417 0 56.889 25.472 56.889 56.889v796.444c0 31.417-25.472 56.889-56.889 56.889zM796.444 142.222c0-15.708-12.722-28.444-28.444-28.444h-484.11c-31.111 0-56.334 25.223-56.334 56.32v1.14c0 31.097 25.223 56.32 56.334 56.32h484.11c15.723 0 28.444-12.736 28.444-28.444v-56.891zM796.444 368c0-15.708-12.722-28.444-28.444-28.444h-398.222c-15.723 0-28.444 12.736-28.444 28.444v400c0 15.708 12.722 28.444 28.444 28.444h398.222c15.723 0 28.444-12.736 28.444-28.444v-400zM654.222 682.667h-170.667c-15.723 0-28.444-12.736-28.444-28.444v-56.889c0-15.708 12.722-28.444 28.444-28.444h170.667c15.723 0 28.444 12.736 28.444 28.444v56.889c0 15.708-12.722 28.444-28.444 28.444z" />
<glyph unicode="&#xe9fb;" glyph-name="map-marker2" d="M512 910.222c-219.945-0.277-398.222-177.5-398.222-396.11 0-314.306 285.556-472.583 370.277-509.305 7.333-3.195 15.166-4.805 22.972-4.805 1.668 0 3.305 0.361 4.972 0.5 1.668-0.139 3.305-0.5 4.972-0.5 7.806 0 15.639 1.611 22.972 4.805 84.722 36.72 370.277 194.999 370.277 509.305 0 218.61-178.251 395.833-398.222 396.11zM516.999 119.749c-1.5 0.779-3.362 1.749-4.999 2.583-1.639-0.834-3.5-1.806-4.999-2.583-73.001 36.862-279.445 161.751-279.445 394.363 0 155.527 127.556 282.055 284.444 282.332 156.889-0.277 284.444-126.805 284.444-282.332 0-232.612-206.444-357.5-279.445-394.363zM512 625.806c-62.834 0-113.778-50.944-113.778-113.806 0-62.834 50.944-113.778 113.778-113.778s113.778 50.944 113.778 113.778c0 62.86-50.944 113.806-113.778 113.806z" />
<glyph unicode="&#xe9fc;" glyph-name="store" d="M796.948 341.333h-1.111c-31.111 0-56.334-25.223-56.334-56.334v-142.777c0-15.694-12.722-28.444-28.444-28.444h-398.137c-15.694 0-28.416 12.75-28.416 28.444v142.777c0 31.111-25.223 56.334-56.334 56.334h-1.14c-31.083 0-56.306-25.223-56.306-56.334v-228.667c0-31.111 25.223-56.334 56.306-56.334h569.916c31.111 0 56.334 25.223 56.334 56.334v228.667c0 31.111-25.223 56.334-56.334 56.334zM913.81 767.89l-89.083 89.111c-35.362 35.362-81.611 52.75-127.945 52.75-4.722 0-9.444-0.194-14.167-0.555v1.026h-341.25v-1.028c-4.722 0.361-9.444 0.555-14.167 0.555-46.306 0-92.555-17.388-127.916-52.75l-89.111-89.111c-70.944-70.944-70.944-186 0-256.972l2.612-2.583c35.472-35.472 81.943-53.221 128.443-53.221s92.999 17.749 128.444 53.223l9.417 9.388c30.972-38.167 78.222-62.612 131.195-62.612h3.417c52.999 0 100.251 24.444 131.195 62.612l9.417-9.388c35.472-35.474 81.972-53.223 128.471-53.223 46.473 0 92.972 17.749 128.444 53.223l2.583 2.583c70.972 70.971 70.972 186.027 0.002 256.972zM833.392 591.388l-2.612-2.612c-12.834-12.834-29.888-19.89-48-19.89-18.167 0-35.221 7.056-48.055 19.89l-9.388 9.417-80.389 80.416c-4.722 4.722-12.5 4.334-16.722-0.86l-71.666-88.334c-10.556-13.054-26.196-20.526-42.862-20.526h-3.417c-16.667 0-32.277 7.472-42.834 20.528l-70.332 86.667c-4.917 6.084-14.028 6.556-19.556 1.028l-88.306-88.334c-12.834-12.832-29.861-19.888-48.028-19.888-18.139 0-35.195 7.056-48 19.89l-2.612 2.612c-26.5 26.528-26.5 69.527 0 96.055l89.111 89.111c16.889 16.889 36.999 19.417 47.472 19.417 1.833 0 12.361 0.612 14.167 0.473h341.25c1.833 0.139 12.361-0.473 14.167-0.473 10.5 0 30.612-2.528 47.5-19.417l89.111-89.111c26.5-26.528 26.5-69.529 0-96.057z" />
<glyph unicode="&#xe9fd;" glyph-name="support3" d="M512 910.222c-251.333 0-455.111-203.749-455.111-455.111s203.778-455.111 455.111-455.111 455.111 203.749 455.111 455.111-203.778 455.111-455.111 455.111zM512 796.444c73.611 0 141.668-23.639 197.444-63.417l-82.028-82.055c-33.86 20-73.248 31.694-115.415 31.694s-81.556-11.694-115.417-31.694l-82.028 82.055c55.778 39.778 123.835 63.417 197.445 63.417zM625.778 455.111c0-6.028-0.722-11.833-1.778-17.556-7.584-48.667-45.778-86.86-94.444-94.444-5.723-1.028-11.556-1.778-17.556-1.778s-11.833 0.75-17.556 1.778c-48.667 7.584-86.86 45.778-94.444 94.444-1.056 5.723-1.778 11.527-1.778 17.556s0.722 11.833 1.778 17.556c7.584 48.667 45.778 86.86 94.444 94.444 5.723 1.028 11.556 1.778 17.556 1.778s11.833-0.75 17.556-1.778c48.667-7.584 86.86-45.778 94.444-94.444 1.056-5.723 1.778-11.527 1.778-17.556zM170.667 455.111c0 73.611 23.666 141.639 63.417 197.444l82.028-82.028c-20.002-33.86-31.668-73.221-31.668-115.415s11.666-81.556 31.666-115.417l-82.028-82.055c-39.749 55.833-63.415 123.861-63.415 197.472zM512 113.778c-73.611 0-141.668 23.639-197.444 63.417l82.028 82.055c33.86-20 73.248-31.694 115.415-31.694s81.556 11.694 115.417 31.694l82.028-82.055c-55.778-39.778-123.835-63.417-197.445-63.417zM789.916 257.639l-82.055 82.055c20.028 33.861 31.694 73.223 31.694 115.417s-11.666 81.556-31.694 115.417l82.055 82.028c39.751-55.806 63.417-123.835 63.417-197.445s-23.666-141.639-63.417-197.472z" />
<glyph unicode="&#xe9fe;" glyph-name="tag" d="M949.632 482.994l-408.455 410.066c-10.94 10.997-25.826 17.163-41.323 17.163h-384.156c-32.215 0-58.347-26.132-58.347-58.404v-384.128c0-15.497 6.165-30.354 17.108-41.296l409.289-409.316c11.385-11.385 26.327-17.079 41.239-17.079s29.854 5.694 41.239 17.079l383.323 383.351c22.773 22.772 22.8 59.737 0.084 82.564zM810.028 421.731l-264.964-264.964c-11.109-11.108-29.074-11.108-40.156 0l-333.863 333.89v277.349c0 15.691 12.718 28.437 28.382 28.437h277.46l333.168-334.5c11.108-11.109 11.052-29.104-0.027-40.213zM455.198 597.326c0-47.127-38.185-85.34-85.257-85.34-47.1 0-85.257 38.213-85.257 85.34 0 47.129 38.156 85.34 85.257 85.34 47.070 0 85.257-38.212 85.257-85.34z" />
<glyph unicode="&#xe9ff;" glyph-name="heart2" d="M711.111 739.555c78.416 0 142.222-76.555 142.222-170.667 0-179.445-217.223-324.999-341.333-386.86-124.251 61.943-341.333 207.472-341.333 386.86 0 94.112 63.806 170.667 142.222 170.667 36.583 0 76.612-25.028 107.111-66.944l46-50.389c22.722-31.221 69.278-31.221 92 0l46 50.389c30.5 41.916 70.528 66.944 107.111 66.944zM711.111 853.333c-80.473 0-152.167-49.278-199.111-113.778-46.944 64.5-118.638 113.778-199.111 113.778-141.388 0-256-127.362-256-284.444 0-325.333 455.111-512 455.111-512s455.111 186.667 455.111 512c0 157.083-114.612 284.444-256 284.444v0z" />
<glyph unicode="&#xea00;" glyph-name="video-camera" d="M967.166 739.555c-6.583 0-13.362-1.278-20.028-4.028l-264.471-108.802v112.83c0 31.417-25.472 56.889-56.889 56.889h-568.889c-31.417 0-56.889-25.472-56.889-56.889v-568.889c0-31.417 25.472-56.889 56.889-56.889h568.889c31.417 0 56.889 25.472 56.889 56.889v112.832l264.473-108.804c6.667-2.75 13.444-4.028 20.028-4.028 30.137 0 56.832 26.722 56.832 62.473v443.943c0 35.751-26.695 62.473-56.834 62.473zM568.889 256c0-15.723-12.722-28.444-28.444-28.444h-398.222c-15.723 0-28.444 12.722-28.444 28.444v398.222c0 15.723 12.722 28.444 28.444 28.444h398.222c15.723 0 28.444-12.722 28.444-28.444v-398.222zM910.222 312.917l-227.556 93.611v97.166l227.556 93.611v-284.388z" />
<glyph unicode="&#xea01;" glyph-name="trophy" d="M967.111 796.444h-170.667v56.889c0 31.417-25.472 56.889-56.889 56.889h-455.111c-31.417 0-56.889-25.472-56.889-56.889v-56.889h-170.667c-31.417 0-56.889-25.472-56.889-56.889v-113.778c0-91.445 60.612-227.556 227.556-227.556h23.833c36.555-83.636 112.114-146.334 203.723-164.958v-119.486h-56.889c-62.834 0-113.778-50.944-113.778-113.778h455.111c0 62.834-50.944 113.778-113.778 113.778h-56.889v119.486c91.607 18.624 167.166 81.323 203.723 164.958h23.833c166.944 0 227.556 136.11 227.556 227.556v113.778c0 31.417-25.472 56.889-56.889 56.889zM227.556 512c-103.89 0-113.333 87.388-113.778 113.778v56.889h113.778v-170.667zM682.667 476.499l-14.306-32.695c-27.221-62.249-88.583-102.471-156.361-102.471s-129.166 40.222-156.361 102.473l-14.306 32.693v319.945h341.333v-319.945zM910.222 625.778c0-19.001-5.5-113.778-113.778-113.778v170.667h113.778v-56.889zM797.723 396.972c0.86 0 0.972 0.306-1.278 1.25v-1.111c0.473-0.084 0.944-0.139 1.278-0.139zM226.277 396.972c0.334 0 0.805 0.055 1.278 0.139v1.111c-2.251-0.944-2.139-1.25-1.278-1.25z" />
<glyph unicode="&#xea02;" glyph-name="cart2" d="M814.176 455.111c39.527 0 73.888 27.166 83.001 65.639l67.166 283.445c13.472 53.86-27.252 106.027-82.75 106.027h-767.668c-31.388 0-56.86-25.472-56.86-56.889s25.472-56.889 56.86-56.889h56.889v-483.556c0-47.14 38.194-85.333 85.278-85.333h597.111c31.417 0 56.86 25.472 56.86 56.889s-25.444 56.889-56.86 56.889h-568.667v113.778h529.639zM284.537 796.444h561.083l-53.916-227.556h-507.166v227.556zM312.981 170.667c-47.111 0-85.305-38.194-85.305-85.333s38.194-85.333 85.305-85.333 85.305 38.194 85.305 85.333-38.194 85.333-85.305 85.333zM767.897 170.667c-47.111 0-85.278-38.194-85.278-85.333s38.167-85.333 85.278-85.333 85.305 38.194 85.305 85.333-38.194 85.333-85.305 85.333z" />
<glyph unicode="&#xea03;" glyph-name="eye32" d="M512 853.333c-185.611 0-371.195-132.75-512-398.222 140.805-265.472 326.389-398.222 512-398.222s371.195 132.75 512 398.222c-140.805 265.472-326.389 398.222-512 398.222zM512 170.667c-134.972 0-271.89 102.86-381.333 284.444 109.444 181.584 246.361 284.444 381.333 284.444s271.89-102.86 381.333-284.444c-109.444-181.584-246.361-284.444-381.333-284.444zM625.778 455.111c0-62.834-50.944-113.778-113.778-113.778s-113.778 50.944-113.778 113.778 50.944 113.778 113.778 113.778 113.778-50.944 113.778-113.778z" />
<glyph unicode="&#xea04;" glyph-name="cancel" d="M512 910.222c-251.362 0-455.111-203.749-455.111-455.111s203.749-455.111 455.111-455.111 455.111 203.749 455.111 455.111-203.749 455.111-455.111 455.111zM170.667 455.111c0 73.639 23.666 141.694 63.472 197.527l475.388-475.388c-55.833-39.806-123.888-63.472-197.527-63.472-188.222 0-341.333 153.111-341.333 341.333zM789.861 257.584l-475.388 475.388c55.833 39.806 123.888 63.472 197.527 63.472 188.222 0 341.333-153.111 341.333-341.333 0-73.639-23.666-141.694-63.472-197.527z" />
<glyph unicode="&#xea05;" glyph-name="chart" d="M170.667 113.778v796.444h-113.778v-853.333c0-31.417 25.472-56.889 56.889-56.889h853.333v113.778h-796.444zM312.889 227.555h56.889c15.723 0 28.444 12.722 28.444 28.444v284.444c0 15.723-12.722 28.444-28.444 28.444h-56.889c-15.723 0-28.444-12.722-28.444-28.444v-284.444c0-15.723 12.722-28.444 28.444-28.444zM483.556 227.555h56.889c15.723 0 28.444 12.722 28.444 28.444v512c0 15.723-12.722 28.444-28.444 28.444h-56.889c-15.723 0-28.444-12.722-28.444-28.444v-512c0-15.723 12.722-28.444 28.444-28.444zM654.222 227.555h56.889c15.723 0 28.444 12.722 28.444 28.444v170.667c0 15.723-12.722 28.444-28.444 28.444h-56.889c-15.723 0-28.444-12.722-28.444-28.444v-170.667c0-15.723 12.722-28.444 28.444-28.444zM824.889 227.555h56.889c15.723 0 28.444 12.722 28.444 28.444v398.222c0 15.723-12.722 28.444-28.444 28.444h-56.889c-15.723 0-28.444-12.722-28.444-28.444v-398.222c0-15.723 12.722-28.444 28.444-28.444z" />
<glyph unicode="&#xea06;" glyph-name="target" d="M910.222 512h-61.636c-23.986 142.917-136.779 255.712-279.698 279.698v61.636c0 31.417-25.472 56.889-56.889 56.889s-56.889-25.472-56.889-56.889v-61.636c-142.917-23.986-255.712-136.78-279.698-279.698h-61.636c-31.417 0-56.889-25.472-56.889-56.889s25.472-56.889 56.889-56.889h61.636c23.986-142.919 136.78-255.712 279.698-279.698v-61.636c0-31.417 25.472-56.889 56.889-56.889s56.889 25.472 56.889 56.889v61.636c142.919 23.986 255.712 136.779 279.698 279.698h61.636c31.417 0 56.889 25.472 56.889 56.889s-25.472 56.889-56.889 56.889zM568.889 234.755v49.689c0 31.417-25.472 56.889-56.889 56.889s-56.889-25.472-56.889-56.889v-49.689c-79.845 20.628-142.839 83.621-163.467 163.467h49.689c31.417 0 56.889 25.472 56.889 56.889s-25.472 56.889-56.889 56.889h-49.689c20.628 79.845 83.621 142.839 163.467 163.467v-49.689c0-31.417 25.472-56.889 56.889-56.889s56.889 25.472 56.889 56.889v49.689c79.845-20.628 142.841-83.621 163.467-163.467h-49.689c-31.417 0-56.889-25.472-56.889-56.889s25.472-56.889 56.889-56.889h49.689c-20.626-79.845-83.621-142.841-163.467-163.467z" />
<glyph unicode="&#xea07;" glyph-name="printer" d="M967.111 796.444h-227.556v56.889c0 31.417-25.472 56.889-56.889 56.889h-341.333c-31.417 0-56.889-25.472-56.889-56.889v-56.889h-227.556c-31.417 0-56.889-25.472-56.889-56.889v-455.111c0-31.417 25.472-56.889 56.889-56.889h113.778v-170.667c0-31.417 25.472-56.889 56.889-56.889h568.889c31.417 0 56.889 25.472 56.889 56.889v170.667h113.778c31.417 0 56.889 25.472 56.889 56.889v455.111c0 31.417-25.472 56.889-56.889 56.889zM739.556 113.778h-455.111v227.556h455.111v-227.556zM910.222 369.778c0-15.723-12.722-28.444-28.444-28.444h-28.444v56.889c0 31.417-25.472 56.889-56.889 56.889h-568.889c-31.417 0-56.889-25.472-56.889-56.889v-56.889h-28.444c-15.723 0-28.444 12.722-28.444 28.444v284.444c0 15.723 12.722 28.444 28.444 28.444h739.556c15.723 0 28.444-12.722 28.444-28.444v-284.444z" />
<glyph unicode="&#xea08;" glyph-name="location3" d="M455.111 578.615v-294.171c0-31.417 25.472-56.889 56.889-56.889s56.889 25.472 56.889 56.889v294.171c66.281 23.435 113.778 86.64 113.778 160.94 0 94.251-76.416 170.667-170.667 170.667s-170.667-76.416-170.667-170.667c0-74.3 47.497-137.508 113.778-160.94zM910.222 568.889h-113.778c-31.417 0-56.889-25.472-56.889-56.889s25.472-56.889 56.889-56.889h28.444c15.723 0 28.444-12.722 28.444-28.444v-284.444c0-15.723-12.722-28.444-28.444-28.444h-625.778c-15.723 0-28.444 12.722-28.444 28.444v284.444c0 15.723 12.722 28.444 28.444 28.444h28.444c31.417 0 56.889 25.472 56.889 56.889s-25.472 56.889-56.889 56.889h-113.778c-31.417 0-56.889-25.472-56.889-56.889v-455.111c0-31.417 25.472-56.889 56.889-56.889h796.444c31.417 0 56.889 25.472 56.889 56.889v455.111c0 31.417-25.472 56.889-56.889 56.889z" />
<glyph unicode="&#xea09;" glyph-name="bookmark" d="M796.444 910.222h-568.889c-31.417 0-56.889-25.472-56.889-56.889v-796.361c0-33.445 27.472-56.972 57.056-56.972 10.556 0 21.444 3.001 31.388 9.639l234.332 201.916c10.667 9.195 26.444 9.195 37.111 0l234.334-201.916c9.945-6.638 20.805-9.639 31.388-9.639 29.584 0 57.056 23.527 57.056 56.972v796.361c0 31.417-25.472 56.889-56.889 56.889zM739.556 181.667l-208.999 180.082c-10.667 9.195-26.444 9.195-37.111 0l-209.001-180.082v586.332c0 15.723 12.722 28.444 28.444 28.444h398.222c15.723 0 28.444-12.722 28.444-28.444v-586.332z" />
<glyph unicode="&#xea0a;" glyph-name="monitor" d="M910.222 910.222h-796.444c-31.417 0-56.889-25.472-56.889-56.889v-682.667c0-31.417 25.472-56.889 56.889-56.889h312.889c-47.14 0-85.333-38.194-85.333-85.333v-28.444h341.333v28.444c0 47.14-38.194 85.333-85.333 85.333h312.889c31.417 0 56.889 25.472 56.889 56.889v682.667c0 31.417-25.472 56.889-56.889 56.889zM853.333 256c0-15.723-12.722-28.444-28.444-28.444h-625.778c-15.723 0-28.444 12.722-28.444 28.444v512c0 15.723 12.722 28.444 28.444 28.444h625.778c15.723 0 28.444-12.722 28.444-28.444v-512z" />
<glyph unicode="&#xea0b;" glyph-name="cross" d="M512 910.222c-251.362 0-455.111-203.749-455.111-455.111s203.749-455.111 455.111-455.111 455.111 203.749 455.111 455.111-203.749 455.111-455.111 455.111zM512 113.778c-188.222 0-341.333 153.111-341.333 341.333s153.111 341.333 341.333 341.333 341.333-153.111 341.333-341.333-153.111-341.333-341.333-341.333zM666.834 609.166l-0.779 0.779c-21.111 21.111-55.333 21.111-76.444 0l-77.611-77.611-77.611 77.611c-21.111 21.111-55.333 21.111-76.444 0l-0.779-0.779c-21.111-21.111-21.111-55.333 0-76.444l77.611-77.611-77.611-77.611c-21.111-21.111-21.111-55.333 0-76.444l0.779-0.779c21.111-21.111 55.333-21.111 76.444 0l77.611 77.611 77.611-77.611c21.111-21.111 55.333-21.111 76.444 0l0.779 0.779c21.111 21.111 21.111 55.333 0 76.444l-77.611 77.611 77.611 77.611c21.111 21.111 21.111 55.333 0 76.444z" />
<glyph unicode="&#xea0c;" glyph-name="plus" d="M512 910.222c-251.362 0-455.111-203.749-455.111-455.111s203.749-455.111 455.111-455.111 455.111 203.749 455.111 455.111-203.749 455.111-455.111 455.111zM512 113.778c-188.222 0-341.333 153.111-341.333 341.333s153.111 341.333 341.333 341.333 341.333-153.111 341.333-341.333-153.111-341.333-341.333-341.333zM683.221 512h-114.332v114.332c0 31.111-25.223 56.334-56.334 56.334h-1.111c-31.111 0-56.334-25.223-56.334-56.334v-114.332h-114.332c-31.111 0-56.334-25.223-56.334-56.334v-1.111c0-31.111 25.223-56.334 56.334-56.334h114.334v-114.332c0-31.111 25.223-56.334 56.334-56.334h1.111c31.111 0 56.334 25.223 56.334 56.334v114.334h114.332c31.111 0 56.334 25.223 56.334 56.334v1.111c-0.002 31.109-25.225 56.332-56.336 56.332z" />
<glyph unicode="&#xea0d;" glyph-name="left" d="M512 910.222c-251.362 0-455.111-203.749-455.111-455.111s203.749-455.111 455.111-455.111 455.111 203.749 455.111 455.111-203.749 455.111-455.111 455.111zM512 113.778c-188.222 0-341.333 153.111-341.333 341.333s153.111 341.333 341.333 341.333 341.333-153.111 341.333-341.333-153.111-341.333-341.333-341.333zM683.221 511.895h-206.667l74.917 73.584c22.055 22.277 22.055 58.332 0 80.612-22.055 22.251-57.778 22.251-79.833 0l-170.667-168.779c-10.583-10.695-16.528-25.166-16.528-40.306 0-0.651 0.025-1.3 0.048-1.948-0.023-0.649-0.048-1.296-0.048-1.948 0-15.14 5.945-29.611 16.528-40.306l170.667-168.779c22.055-22.251 57.778-22.251 79.833 0 22.055 22.277 22.055 58.332 0 80.612l-74.917 73.586h206.667c31.111 0 56.334 25.223 56.334 56.334v1.006c0 31.111-25.223 56.332-56.334 56.332z" />
<glyph unicode="&#xea0e;" glyph-name="up" d="M967.111 455.111c0 251.362-203.749 455.111-455.111 455.111s-455.111-203.749-455.111-455.111c0-251.362 203.749-455.111 455.111-455.111s455.111 203.749 455.111 455.111zM170.667 455.111c0 188.222 153.111 341.333 341.333 341.333s341.333-153.111 341.333-341.333-153.111-341.333-341.333-341.333-341.333 153.111-341.333 341.333zM568.784 283.89v206.667l73.584-74.917c22.277-22.055 58.332-22.055 80.612 0 22.251 22.055 22.251 57.778 0 79.833l-168.779 170.667c-10.695 10.583-25.166 16.528-40.306 16.528-0.651 0-1.3-0.025-1.95-0.048-0.649 0.023-1.296 0.048-1.948 0.048-15.141 0-29.611-5.945-40.306-16.528l-168.779-170.667c-22.251-22.055-22.251-57.778 0-79.833 22.277-22.055 58.332-22.055 80.612 0l73.588 74.917v-206.667c0-31.111 25.223-56.334 56.334-56.334h1.006c31.111 0 56.332 25.223 56.332 56.334z" />
<glyph unicode="&#xea0f;" glyph-name="browser" d="M910.222 910.222h-796.444c-31.417 0-56.889-25.472-56.889-56.889v-796.444c0-31.417 25.472-56.889 56.889-56.889h796.444c31.417 0 56.889 25.472 56.889 56.889v796.444c0 31.417-25.472 56.889-56.889 56.889zM170.667 768c0 15.723 12.722 28.444 28.444 28.444h85.333v-113.778h-113.778v85.333zM853.333 142.222c0-15.723-12.722-28.444-28.444-28.444h-625.778c-15.723 0-28.444 12.722-28.444 28.444v426.667h682.667v-426.667zM853.333 682.667h-455.111v113.778h426.667c15.723 0 28.444-12.722 28.444-28.444v-85.333z" />
<glyph unicode="&#xea10;" glyph-name="windows" d="M967.111 910.222h-568.889c-31.417 0-56.889-25.472-56.889-56.889v-170.667h-284.444c-31.417 0-56.889-25.472-56.889-56.889v-568.889c0-31.417 25.472-56.889 56.889-56.889h568.889c31.417 0 56.889 25.472 56.889 56.889v170.667h284.444c31.417 0 56.889 25.472 56.889 56.889v568.889c0 31.417-25.472 56.889-56.889 56.889zM568.889 142.222c0-15.694-12.722-28.444-28.444-28.444h-398.222c-15.723 0-28.444 12.75-28.444 28.444v398.222c0 15.723 12.722 28.444 28.444 28.444h398.222c15.723 0 28.444-12.722 28.444-28.444v-398.222zM910.222 369.778c0-15.694-12.722-28.444-28.444-28.444h-199.111v284.444c0 31.417-25.472 56.889-56.889 56.889h-170.667v85.333c0 15.723 12.722 28.444 28.444 28.444h398.222c15.723 0 28.444-12.722 28.444-28.444v-398.222z" />
<glyph unicode="&#xea11;" glyph-name="switch" horiz-adv-x="1138" d="M739.556 853.333h-341.333c-219.945 0-398.222-178.277-398.222-398.222s178.277-398.222 398.222-398.222h341.333c219.945 0 398.222 178.277 398.222 398.222s-178.277 398.222-398.222 398.222zM739.556 170.667h-341.333c-156.834 0-284.444 127.611-284.444 284.444s127.611 284.444 284.444 284.444h341.333c156.834 0 284.444-127.611 284.444-284.444s-127.611-284.444-284.444-284.444zM568.889 455.111c0-94.251-76.416-170.667-170.667-170.667s-170.667 76.416-170.667 170.667 76.416 170.667 170.667 170.667 170.667-76.416 170.667-170.667z" />
<glyph unicode="&#xea12;" glyph-name="dashboard" d="M512 910.222c-282.777 0-512-229.223-512-512 0-31.417 25.472-56.889 56.889-56.889s56.889 25.472 56.889 56.889c0 219.584 178.638 398.222 398.222 398.222s398.222-178.638 398.222-398.222c0-31.417 25.472-56.889 56.889-56.889s56.889 25.472 56.889 56.889c0 282.777-229.223 512-512 512zM568.889 447.941v177.836c0 31.417-25.472 56.889-56.889 56.889s-56.889-25.472-56.889-56.889v-177.836c-98.14-25.264-170.667-114.363-170.667-220.386 0-125.668 101.888-227.556 227.556-227.556s227.556 101.888 227.556 227.556c0 106.023-72.526 195.122-170.667 220.386zM512 113.778c-62.722 0-113.778 51.028-113.778 113.778s51.056 113.778 113.778 113.778 113.778-51.028 113.778-113.778-51.056-113.778-113.778-113.778z" />
<glyph unicode="&#xea13;" glyph-name="play3" d="M284.444 687.555l393.388-232.444-393.388-232.444v464.889zM227.556 853.333c-31.417 0-56.889-25.472-56.889-56.889v-682.667c0-31.417 25.472-56.889 56.889-56.889l601.278 355.305c15.166 8.972 24.5 25.278 24.5 42.917s-9.333 33.945-24.5 42.917l-601.278 355.305z" />
<glyph unicode="&#xea14;" glyph-name="fast-forward" d="M999.5 498.028l-601.278 355.305c-31.417 0-56.889-25.472-56.889-56.889v-111.184l-284.444 168.073c-31.417 0-56.889-25.472-56.889-56.889v-682.667c0-31.417 25.472-56.889 56.889-56.889l284.444 168.084v-111.195c0-31.417 25.472-56.889 56.889-56.889l601.278 355.305c15.195 8.972 24.5 25.278 24.5 42.917s-9.305 33.945-24.5 42.917zM341.333 357.139l-227.556-134.473v464.889l227.556-134.473v-195.943zM455.111 222.667v464.889l393.388-232.444-393.388-232.444z" />
<glyph unicode="&#xea15;" glyph-name="next" d="M967.111 853.333c-31.417 0-56.889-25.472-56.889-56.889v-245.662l-512 302.551c-31.417 0-56.889-25.472-56.889-56.889v-111.184l-284.444 168.073c-31.417 0-56.889-25.472-56.889-56.889v-682.667c0-31.417 25.472-56.889 56.889-56.889l284.444 168.084v-111.195c0-31.417 25.472-56.889 56.889-56.889l512 302.551v-245.662c0-31.417 25.472-56.889 56.889-56.889s56.889 25.472 56.889 56.889v682.667c0 31.417-25.472 56.889-56.889 56.889zM341.333 357.139l-227.556-134.473v464.889l227.556-134.473v-195.943zM455.111 222.667v464.889l393.388-232.444-393.388-232.444z" />
<glyph unicode="&#xea16;" glyph-name="refresh" d="M455.874 170.348h-46.741c-134.912 22.064-238.203 139.554-238.203 280.692 0 47.296 12.142 91.534 32.651 130.773l34.875-48.352c25.397-35.179 80.169-25.371 91.813 16.452l66.11 237.758c9.198 33.013-15.646 65.719-49.909 65.664l-237.451-0.363c-42.183-0.055-66.555-47.852-41.877-82.087l64.19-88.951c-46.489-65.136-74.084-144.722-74.084-230.894 0-199.076 146-364.055 336.684-393.513 5.196-0.805 10.256-0.583 15.2 0.055v-0.693h46.741c31.012 0 56.133 25.122 56.133 56.162v1.14c0 31.012-25.122 56.158-56.133 56.158zM956.871 139.308l-64.219 88.951c46.517 65.138 74.084 144.722 74.084 230.894 0 199.076-145.972 364.057-336.656 393.54-5.198 0.805-10.256 0.583-15.202-0.084v0.724h-46.768c-30.985 0-56.105-25.148-56.105-56.16v-1.14c0-31.040 25.12-56.188 56.105-56.188h46.768c134.914-22.064 238.174-139.554 238.174-280.692 0-47.296-12.142-91.534-32.622-130.773l-34.903 48.352c-25.371 35.18-80.171 25.371-91.785-16.423l-66.137-237.756c-9.17-33.042 15.671-65.721 49.936-65.666l237.451 0.334c42.185 0.057 66.555 47.881 41.879 82.087z" />
<glyph unicode="&#xea17;" glyph-name="film" d="M967.111 853.333h-910.222c-31.417 0-56.889-25.472-56.889-56.889v-682.667c0-31.417 25.472-56.889 56.889-56.889h910.222c31.417 0 56.889 25.472 56.889 56.889v682.667c0 31.417-25.472 56.889-56.889 56.889zM113.778 739.555h113.778v-113.778h-113.778v113.778zM113.778 512h113.778v-113.778h-113.778v113.778zM113.778 170.667v113.778h113.778v-113.778h-113.778zM341.333 170.667v568.889h341.333v-568.889h-341.333zM910.222 170.667h-113.778v113.778h113.778v-113.778zM910.222 398.222h-113.778v113.778h113.778v-113.778zM910.222 625.778h-113.778v113.778h113.778v-113.778z" />
<glyph unicode="&#xea18;" glyph-name="home" d="M999.916 585.888l-444.722 313.918c-9.584 6.777-21.056 10.416-32.805 10.416h-20.779c-11.749 0-23.221-3.639-32.805-10.416l-444.722-313.918c-15.111-10.638-24.084-27.972-24.084-46.471v-482.528c0-31.417 25.472-56.889 56.889-56.889h910.222c31.417 0 56.889 25.472 56.889 56.889v482.528c0 18.5-8.972 35.833-24.084 46.471zM910.222 142.222c0-15.723-12.722-28.444-28.444-28.444h-426.667v312.889c0 15.723-12.722 28.444-28.444 28.444h-170.667c-15.723 0-28.444-12.722-28.444-28.444v-312.889h-85.333c-15.723 0-28.444 12.722-28.444 28.444v352.972c0 9.25 4.5 17.916 12.028 23.25l386.194 272.583 386.167-272.583c7.556-5.333 12.055-14 12.055-23.25v-352.972zM768 455.111h-170.667c-15.723 0-28.444-12.722-28.444-28.444v-56.889c0-15.723 12.722-28.444 28.444-28.444h170.667c15.723 0 28.444 12.722 28.444 28.444v56.889c0 15.723-12.722 28.444-28.444 28.444z" />
</font>
</defs>
</svg>
